, and , . Although some might consider them a symphonic progressive band, others state that their style is mostly jazz-oriented. Get all 195 Lobster Theremin releases available on Bandcamp and save 90%. For most people my age, we discovered new music by listening to the radio. Below are the Dieter Osten and East of Eden releases detailed on this site. They relocated to London in 1968 and were signed to Decca's progressive rock label Deram, releasing their first album "Mercator Projected" in 1969.East Of Eden were one of a number of groups who performed at the relocated Actuel Festival (October 24-28, 1969) at Mont de I'Enclus, Amougies, Belgium. Allure EP, discogs konnen sie sich ansehen wer an 1975 vinylvon another eden mitgewirkt hat rezensionen und titellisten lesen und auf dem marktplatz nach der veroffentlichung ... of eden east of eden is a novel by american author and nobel prize winner john steinbeckthe work is regarded by many to be steinbecks most ambitious novel and by Tabula Rasa, The singles were "Hold On to Your Dream" and "No Show Tonight". - POCD-1848,Japan,CD].wv" WAVE TRACK 01 AUDIO TITLE "Northern Hemisphere" PERFORMER "East Of Eden" INDEX 01 00:00:00 TRACK 02 AUDIO ... Описание на Discogs. Google returns more results for a progressive rock band in the UK. I bought the album on cassette, and in a crunch for cash, it was an early casualty. LT-GLOBE-XX2, East of Eden was first published in September of 1952 by Viking Press. It was evidence I wasn’t the only person to have ever owned the album, nor the only one to surrender it. This -4th album- from East O Eden is another blaster of good progressive rock with violin, at times reminding of High Tide, but more progressive. [1] The track became something of a stylistic albatross around the band's neck, since it did not resemble their usual sound or anything else they normally played. East of Eden shares it name with a number of bands, and the Boston ensemble registers barely a footprint. Stream ad-free or purchase CD's and MP3s now on Amazon.com. It wasn’t Pixies or Throwing Muses by any stretch of the imagination, but it had all the requisite gloss of an ’80s record, and it wasn’t Richard Marx. Dub House East of Eden, aka Nicholas joins the fam, dropping his debut release, ‘East of Eden’ LP. They recorded a good album that was victim to inattention by a major label in a fertile period ripe with great bands doing excellent work. East of Eden were a British progressive rock band, who had a Top 10 hit in the UK with the single "Jig-a-Jig" in 1970. East Of Eden LP by East Of Eden, released 25 October 2019 1. CritiqueBrainz Reviews No one has reviewed this release group yet. Rosenman, a concert composer, had earned his reputation with such film scores as East of Eden (1955), Rebel Without a Cause (1955), Hell Is For Heroes (1962) and Fantastic Voyage (1966), and theme music and incidental music … The album actually turned out to be pretty decent. East of Eden, aka Nicholas joins the fam, dropping his debut release, ‘East of Eden’ LP. Back in 1989, I wanted every album I bought to change my life. I was surprised to find a copy of the album on CD at the Lifelong AIDS Alliance Thrift Shop. Tags: east of eden, the ones that nearly got away, The Ones That Nearly Got Away: Mouth Music, Mouth Music, Thrift Store Find: bloom field, Sanka Sanbusaku. By the time this third album came out, little was left of the original spirit of East Of Eden and only violinist Dave Arbus of the original line-up. Lost Horizon 7. Google returns more results for a progressive rock band in the UK. The track was stylistically unlike any of their other work. Yume Name Koro 6. Be the first to write a review. That one came out under the Dieter Osten name. East Of Eden were one of a number of groups who performed at the relocated Actuel Festival (October 24-28, 1969) at Mont de I'Enclus, Amougies, Belgium. east of eden Dec 12, 2020 Posted By Dr. Seuss Publishing TEXT ID 2129d402 Online PDF Ebook Epub Library East Of Eden INTRODUCTION : #1 East Of Eden" Read East Of Eden " Uploaded By Dr. Seuss, jenseits von eden originaltitel east of eden ist ein us amerikanisches filmdrama des regisseurs elia kazan aus dem jahr 1955 Complete your East Of Eden collection. The album itself is nowhere to be found on digital services. The album was released in 1989, a crowded year with a lot of stellar albums by XTC, the Replacements, the B-52’s and 10,000 Maniacs. Free delivery for many products! The progressive rock band East of Eden's self-titeled album was released in 1971 on Harvest (SHVL 792). Nine deep house tracks brimming with influences from far-flung corners of the world, this stunning double LP drops 25th October on LT sublabel, Distant Hawaii. This record is fairly scarce, but it has become easier to find and more inexpensive recently. I picked up the self-titled debut of a Boston band named East of Eden because their album was on sale at Tower Records. There was an East of Eden LP released containing these two tracks as well (along with four others). east of eden Dec 10, 2020 Posted By Anne Rice Ltd TEXT ID 912c9d72 Online PDF Ebook Epub Library teppich zeig dein gesicht und beende was du angefangen hast die schallplatte dreht sich die strasse runter in spater nacht sei mein freund umrunde mich wie ein satellit tiger John Steinbeck's East of Eden: A Television Mini-Series (Original Television Soundtrack) Download. The track was stylistically unlike any of their other work. See: Editing a JazzSkool Page for instructions. Self Love Club, Also appearing were May Blitz, East Of Eden, Frumpy, among other incredible obscure Krautrock Prog Psych bands.. crazy, killer line up of music! Unfinished, east of eden Dec 24, 2020 Posted By Paulo Coelho Media TEXT ID 2129d402 Online PDF Ebook Epub Library East Of Eden INTRODUCTION : #1 East Of Eden * Last Version East Of Eden * Uploaded By Paulo Coelho, jenseits von eden originaltitel east of eden ist ein … It is also rather hard to find. and 187 more. Revolutionary Words 2. * Items below may differ depending on the release. 2 5. Click one of the images below to go to a specific entry. Full colour printed sleeve, full colour printed centre stickers and 2 x 12" vinyl. East of Eden were a British progressive rock band, who had a Top 10 hit in the UK with the single "Jig-a-Jig" in 1970. For the sequel the hit 1968 movie Planet of the Apes, Brooklyn-born film and television soundtrack composer Leonard Rosenman was appointed to compose the musical score. May 12, 2020 - Explore Zeek Geek's board "Zeek's Record Collection", followed by 210 people on Pinterest. East of Eden was a British progressive rock band, who had a Top 10 hit in the UK with the single, "Jig-a-Jig", in 1971. Adventures In The Dream Tribe Pt. Check out East of Eden Theme (From 'East of Eden' Original Soundtrack) by Leonard Rosenman on Amazon Music. This is the raw source file and needs to be edited, verified, and reformatted. 1C 064-62 639; Vinyl LP). In the Air Age Barclay James Harvest – The Best of Barclay James Harvest Electric Light Orchestra – The Light Shines On Deep Purple – Shades of Deep Purple (Reissue) The Little River Band – Diamantina Cocktail (US and Canada only) Pete Brown & Piblokto! Mercator Projected is a music studio album recording by EAST OF EDEN (Eclectic Prog/Progressive Rock) released in 1969 on cd, lp / vinyl and/or cassette. Genres: Jazz-Funk, Jazz-Rock. What a year that would have been.. to jump from Woodstock and the end of the flower power era and jet over seas to witness the burgeoning Krautrock scene. east of eden Dec 14, 2020 Posted By Agatha Christie Media TEXT ID 912c9d72 Online PDF Ebook Epub Library the story of the trask family brings to light a struggle and conflict inherent in the human condition auf discogs konnen sie sich ansehen wer an 1971 vinylvon east of eden East of Eden was good, but it didn’t have enough heft to elbow its way into regular rotation on my Walkman. Moods & Vibes, East of Eden shares it name with a number of bands, and the Boston ensemble registers barely a footprint. East Of Eden were formed in Bristol by Dave Arbus, Ron Caines, Geoff Nicholson and Geoff Britton. East Of Eden were formed in Bristol by Dave Arbus, Ron Caines, Geoff Nicholson and Geoff Britton. I’m part of the last generation that knew what life was like before the Internet. The album was remastered in 2013 by Rock Candy Records. Find many great new & used options and get the best deals for Talk Talk - Spirit of Eden 1988 LP Vinyl at the best online prices at eBay! Bermuda 9. East of Eden - rift in the lute.wav" WAVE TRACK 09 AUDIO TITLE "rift in the lute" PERFORMER "East of Eden" INDEX 01 00:00:00 FILE "10. ... also fired up about war in the Middle East and reflecting on the ageing process in fine style. East Of Eden biography Formed in Bristol, UK, in 1967 - Disbanded in 1978 - Reunited in 1996 I think that EAST OF EDEN is a very good and worthmentioned prog rock band. Includes unlimited streaming via the free Bandcamp app, plus high-quality download in MP3, FLAC and more. At the time, Boston was home to Throwing Muses and Pixies, so there was a chance some of that rubbed off on East of Eden. Released in 1978 on Harvest (catalog no. Discover releases, reviews, credits, songs, and more about East Of Eden - East Of Eden at Discogs. Hooguit zijn de taakverdelingen wat duidelijker nu: Geoff Nicholson speelt gewoon gitaar, Ron Caines eigenlijk alleen maar saxofoon en Dave Arbus zoals gebruikelijk zijn viool. FILE "1969 East Of Eden - Mercator Projected [1992,Polydor K.K. Dreams 8. Undercover Castle, East of Eden's Gate is a studio album by singer Billy Thorpe.It was released in 1982 by Pasha Records. Transcendence, East of Eden kan verwijzen naar: . More adventurous listeners would seek out zines. Silver Park, an Album by East of Eden. This is not a complete discography. east of eden Dec 16, 2020 Posted By Roald Dahl Media Publishing TEXT ID 2129d402 Online PDF Ebook Epub Library as a major act particularly in france where the band had several top ten singles and major album success an imaginative fusion of jazz psychedelia and world east of eden is East of Eden - in the red ghetto of the world.wav" WAVE TRACK 08 AUDIO TITLE "in the red ghetto of the world" PERFORMER "East of Eden" INDEX 01 00:00:00 FILE "09. For $1, I was willing to explore why I let it go in the first place. Adventures In The Dream Tribe 3. If you hated radio — and I did — we found out about music through magazines. Information is scarce on Discogs.com, which misattributes them as a Pennsylvania band. Formed in 1967. discogs my collection albums; Friday, 12 August 2016. They relocated to London in 1968 and were signed to Decca's progressive rock label Deram, releasing their first album "Mercator Projected" in 1969. This is not a ska record. Days Go By ft. Javonntte 4. Core members Dave Arbus (violin, flute, saxophone, trumpet, bagpipes and vocals), Ron Caines (saxophone, keyboards and vocals), and Geoff Nicholson (guitar and vocals). Includes unlimited streaming via the free Bandcamp app, plus high-quality downloads of Discogs page for Long Road Out Of Eden; Tracklistings come from MusicBrainz. Information is scarce on Discogs.com, which misattributes them as a Pennsylvania band. FILE "08. Made two albums for Deram; Mercator Project, and Snafu. 1977 The Albion Dance Band – The Prospect Before Us Pink Floyd – Animals (Europe only) Be-Bop Deluxe – Live! East of Eden didn’t, which was pretty unfair to the band. Although some might consider them a symphonic progressive band, others state that their style is mostly jazz-oriented. See more ideas about album covers, album, album cover art. There might have been a review somewhere. They where formed in 1967 and signed with DECCA RECORDS around the year 1969. East Of Eden Discography Price Guide … Visit Raw Pages for more that need doing!